106 “Hammerklavier”). Beethoven, invece di usare il "V del V del V" (ossia do # magg. Riproduci i brani interamente da Beethoven: Piano Sonata No. $0.99; $0.99; Publisher Description. 78: II. Quest'ultimo accordo prepara l'entrata del 'secondo episodio (derivato dal primo) che si presenta come una digressione sulla settima di dominante di do diesis maggiore (= sol diesis maggiore settima). Ludwig van Beethoven (1770 - 1827) Piano Sonata No.24 in F-sharp major, Op.78 ("A Thérèse") I. Adagio cantabile - Allegro ma non troppo 4 in E flat major, Op. 24, "Spring"; Spring Sonata; Σονάτα της Άνοιξης; Violinsonate Nr. Close your eyes and imagine… Beethoven News. The concentrated thematic material and blending of melody and accompaniment would again be taken up as compositional topics from Op. 24; Pianoarentzako 24. sonata; Sonate pour piano nº 24 de Beethoven; Sonata per pianoforte n. 24; ピアノソナタ第24番; Pianosonate nr. DR14 -4.58 dB -23.74 dB 7:28 11-Ludwig van Beethoven: Piano Sonata No. 5 in F major, Op. LUDWIG VAN BEETHOVEN CD 1 Piano Sonata No. 24 In F Sharp Major Op.78 / No. Allegro vivace DR12 -5.56 dB -22.26 dB 3:26 13-Ludwig van Beethoven: Piano Sonata No. 24 in F sharp, Op. non è dato sapere a chi risalga la denominazione di Sonata «della Primavera» che ha … 24 In F Sharp, Op. 21 in C major, Op. Piano Sonata No. 78. Piano Sonata No. 78 "For Theresa" This is the only sonata Beethoven wrote in the key of F# major. 24 in F-sharp major, Op. Viene subito presentato il Tema principale (misure 1 - 12) nella tonalità d'impianto anche se l'accordo di base non compare mai (viene raggiunta a misura 10). => sol # magg. [5] 24 in F-sharp major, Op. Lo sviluppo è molto breve e per lo più si appoggia al modo minore: re diesis minore a misura 50, do diesis minore a misura 52, si maggiore a misura 55. There is no evidence that after Opus 111, Beethoven ever thought of writing another piano sonata. 24 diberi nama "à Thérèse", karena Beethoven menujukkan karya ini kepada Countess Thérèse von Brunswick.Pada umumnya, sonata ini memakan waktu sekitar 10 menit untuk ditampilkan. Piano Sonata No. Adagio molt 05. 28 In A Op.101 at Discogs. 2 No. 4–7 / 9.70308). 23. Tracklist 01. Piano Sonata No. No. Appare a questo punto un terzo tema derivato dal primo episodio formato da figurazioni con alternanza tra re diesis minore e minore (relativo minore della tonica) e improvvisi fortissimo e piano.[batt. He will celebrate Beethoven’s 250th birthday in 2020 by playing the whole cycle of Beethoven’s 32 Piano Sonatas in multiple cities, which includes a self-produced video series named “32@32”, made in collaboration with filmmaker Zac Nicholson and designed to … 5; Viulusonaatti nro 5; Sonate pour violon et piano nº 5 de Beethoven; ヴァイオリンソナタ第5番; Соната для скрипки і фортепіано № 5; Σονάτα για βιολί No. 78 ‘Für Therese’ [4] I. Barenboim: Beethoven – Piano Sonatas no. 26 in E flat major, Op. The Piano Sonata No. Recording: September 1 2020 - Boulez Saal | Berlin Director: Fréderic Delesques Duration: 00:11 Would you like to see this program? 24; Klaviersonate Nr. 29 in B-Flat Major, Op. 5; Violin Sonata No. 24 in F# major, Op. And yes, if you push me, (please don’t,) my single favourite piece in all Beethoven’s music, Piano Sonata Opus 110. 24 in F-sharp major, Op. 23 in F minor, Op. Hans von Bülow called them "The New Testament" of the piano literature (Johann Sebastian Bach's The Well-Tempered Clavier being "The Old … Sources for the musical text include first editions, original manuscripts, and the most recent urtext editions and critical commentaries. Indeed, some of the passagework in the outer movements must have been prohibitive to most amateur pianists; and the length of the sonata, at the time, made it the longest work for piano ever published, and the second longest sonata Beethoven composed (the record goes to the Sonata in B-flat Major, Op. Uploaded 6 years ago. 78 "À Thérèse": I. Adagio cantabile - Allegro ma non troppo DR12 -4.21 dB -21.39 dB 3:24 12-Ludwig van Beethoven: Piano Sonata No. LISTING & MENU. 24 (Beethoven)" The following 5 files are in this category, out of 5 total. 1: I. Allegro (Live)", "Piano Sonata No. No. Title by uploader: Beethoven-Piano Sonata No.24 Look inside. La struttura formale è quella di un eccentrico rondò. 28 In A Op.101 at Discogs. [5] Questa seconda parte, sviluppo compreso, deve essere ripetuto in quanto Beethoven ha messo il segno di ritornello. 1 in F Minor, Op. Piano: Scored for. 24 Op. Artur Pizarro plays Beethoven's Piano Sonata No. Seller Wenhao Pei: PDF, 917.3 Kb ID: SM-000516038 Upload date: 21 Nov 2020. 5 -9], A misura 9 dovrebbe seguire la classica "codetta del tema"; in realtà troviamo altre due frasi (misure 9 - 12 e misure 13 - 17) nelle quali la linea melodica sembra improvvisata e dove l'inizio di una frase "richiama il profilo della precedente, o per dissolverlo in un leggero arabesco, o per espanderlo verso un'espressione più intensa". [2] [batt. 24 in F♯ major, Op. 1 In F Minor Op.2/1 / No. 24 - Nikolai Demidenko on AllMusic - 2006 - Prior to this release, pianist Nikolai Demidenko… 79 Beethoven: Piano Sonata No. Piano sheet music for op.78 no.24 A Therese, composed by Beethoven for piano. 24 in F sharp, Op. Piano Sonata No. <= sol # magg. 22 in F Major, Op. 78, (à Thérèse). 1 in F Minor, Op. [7] Si ripresentano quindi il tema principale (misure 89 - 100) e il terzo episodio (misure 100 - 110) simile al primo; il terzo tema (misure 110 - 133) ora con l'armonia della tonica (fa diesis maggiore) e con una cadenza finale sull'accordo di settima di dominante di sol maggiore (re maggiore settima). Beethoven: Piano Sonata No. 7 "Grand": II. Piano Sonata No. 78, “À Thérèse” / I. Adagio cantabile – Allegro ma non troppo 2. Sull'ultima figurazione del tema (battuta 11) Beethoven costruisce la coda che porta a due corone (una breve cadenza: fa diesis maggiore - do diesis maggiore settima) e alle ultime sei battute cadenzali per chiudere definitivamente sulla tonica (fa diesis maggiore). If you purchase this piano violin duet sheet music you will able to download in different score parts. <= re # magg. Well known for his work with the East-Western Divan Orchestra, a group of young Arab and Israeli musicians, he is currently the director of the Berlin State Opera, La Scala (Milan) and the Staatskapelle Berlin. 1 In C Major, Opus 15 / Sonata No. 49 No. 27 No. Ludwig van Beethoven wrote his 35 piano sonatas between 1782 and 1822. Artur Schnabel (1882-1951), piano. Sheet music file 1.99 USD. 78 (à Thérèse / to Teresa) - Adagio Cantabile - Allegro Ma Non Troppo Discover releases, reviews, track listings, recommendations, and more about Beethoven* - John Lill - Beethoven Piano Sonatas - No. Ludwig van Beethoven compose le sue 32 sonate per pianoforte tra il 1795 e il 1822. di sottodom. Ascolta senza pubblicità oppure acquista CD e MP3 adesso su Amazon.it. 4 in E-Flat Major, Op. 53 ‘Waldstein’ CD 2 Piano Sonata No. Verso di lei Beethoven non ebbe sentimenti più grandi della semplice stima intellettuale e della "sororale tenerezza" (secondo quanto scritto da lei stessa nei suoi diari); tuttavia per molto tempo si credette che la destinataria delle famose lettere scritte dal musicista alla Immortale Amata fosse proprio lei. 23 in F Minor, Op. Subscribe now ! 4 In G / Piano Sonata No. Sebbene originariamente non destinate ad essere un insieme unico, sono considerate una delle più importanti collezioni di opere della storia della musica. Piano Sonata No. COMPOSITIONS A-Z (2378) ARRANGEMENTS A-Z (12) INSTRUMENTATIONS . Piano Sonata no. Segue a chiusura del movimento la coda finale (misure 94 - 109) nella quale ad un disegno scorrevole della mano sinistra (quartine di semicrome) si contrappone frammenti del tema principale alla mano destra alla tonica (fa diesis maggiore). 1-6 (24/96 FLAC) Piano Sonata No. Instrumentations: PIANO › Piano solo (4) Original. 2006 Preview SONG TIME Piano Sonata No. Piano Sonata No.24 in F-sharp major (A Thérèse) - Opus 78. LUDWIG VAN BEETHOVEN: PIANO AND VIOLIN SONATA IN F MAJOR, OP. Tonic Chord May 17, 2018. 24 FLAC Discount The first six volumes (9.70307–9.70312) of Boris Giltburg’s traversal of Beethoven’s 32 piano sonatas have been received with much acclaim: ‘[Giltburg brings] us closer to the spontaneous feel of a live performance… on this form Naxos’s cycle looks set to be something special’ (Malcolm Hayes, BBC Music Magazine, on Sonatas Nos. 24 in F-Sharp, Op. Sonata for Violin and Piano No. [4] Il secondo tema (da misura 29 a misura 33), formato da due brevi frasi di terzine, è soffuso di lirismo e determina e completa l'ambiente sonoro iniziato con l'introduzione. Complete your Beethoven* - John Lill collection. 57 Appassionata: III. The F minor Sonata (No.1), Beethoven dedicates to Haydn and even though their relationship was not the sunniest, Beethoven held Haydn in the highest of esteem even if he was loathed to publicly admit it. 2 01. Preview. Beethoven*, Claudio Arrau With The Philharmonia Orchestra Conducted By Alceo Galliera: Beethoven*, Claudio Arrau With The Philharmonia Orchestra Conducted By Alceo Galliera - Piano Concerto No. 78 Beethoven: Piano Sonata No. 78 \"Á Thérèse\"0:20 I. Adagio cantabile - Allegro ma non troppo4:57 II. 2 ‘Moonlight’ Piano Sonata No. World wide shipping "For 20 … One would agree with this only too readily, were it not, for instance, for Beethoven’s six piano sonatas recorded on this CD (and, of course, a few others works), which in no way fit in with the image of the “titan”, as indicated by Gould’s remark. See more Beethoven News. Ritorna l'episodio intermedio ora come digressione sulla settima di dominante di sol maggiore. Andante con moto 03. … 23 in F Minor, Op. Menurut Maynord Solomon, sonata ini dan sonata "Appassionata" merupakan piano sonata favorit Beethoven … Sonata no. 7a => do # magg. 78. Beethoven took a nearly five-year break from piano sonata composition after finishing the earth-shaking "Appassionata" sonata of 1804-1805. 24 in F-Sharp Major, Op. Comme sa jumelle la Sonate no 13, Beethoven l'intitula Sonata quasi una Fantasia per il Clavicembalo o Piano-… 24 in F-Sharp Major, Op. 4—as well as his later Symphony No… 1-12], Un secondo tema alla tonica appare a battuta 12. Allegro vivace By Ludwig van Beethoven & Ludwig van Beethoven 2:30: 8 Songs, 54 Minutes Released: Jan 22, 2015 ℗ 2015 Shisei Hanai; Also Available in iTunes More By Shisei Hanai See All. La struttura formale è quella di un eccentrico rondò. [3] È una melodia che non ritornerà più.[batt. 23 in F Minor, Op. 106 (known as the Hammerklavier) is a piano sonata that is widely viewed as one of the most important works of the composer’s third period and among the greatest piano sonatas of all time. Piano Sonata No. Piano Sonata No. #20: No. Stream songs including "Piano Sonata No. Il tema inizia con un accordo di sesta aumentata (re naturale - si diesis) che si risolve sull'accordo di dom… 57 Appassionata: III. 21-25], Ritorna il primo tema alla tonica (misure 32 - 43) e il secondo tema, sempre alla tonica, (misure 43 - 51). It consists of two movements: Adagio cantabile - Allegro ma non troppo; Allegro vivace; A typical performance takes 10 minutes. Violinsonate Nr. [batt. 57 Appassionata: II. Allegro vivace . Il Secondo movimento della sonata ha come metro due quarti nella tonalità di base di fa diesis maggiore. 24 in F sharp major, Op. Preparato dalla successione accordale (misure 150 - 151) settima di dominante di sol maggiore (re maggiore settima) - dominante (do diesis maggiore) - tonica (fa diesis maggiore) riappare (misure 150 - 161), alla tonica, per l'ultima volta il tema principale. 1 In F Minor Op.2/1 / No. Adagio (Live)" and more. Casting. He returned to the genre only in May 1809, when the departure of his friend Archduke Rudolph prompted him to begin the "Les Adieux" Sonata No… A differenza di Wagner, il giudizio non era basato tanto sulle caratteristiche musicali, quanto per il fatto che non coincideva con alcuni momenti della vita dell'autore; difatti lo stesso d'Indy affermò: «Quale artista, quale uomo dotato semplicemente di senso artistico potrà ammettere che la sola opera dedicata alla contessa di Brunswick, l'insipida Sonata in fa diesis maggiore, possa essere stata indirizzata alla stessa destinataria di quelle appassionate lettere che tutto il mondo ha letto?»[1], Il Primo movimento della sonata ha come metro due quarti subito cambiato in quattro quarti (tempo ordinario) nella tonalità di base di fa diesis maggiore. Il Secondo movimento della sonata ha come metro due quarti nella tonalità di base di fa diesis maggiore. fa # magg. Solo: Type of score. You may also like. I. Allegro con brio 04. 24 in F-Sharp Major, Op. TITLE TIME; 1 Piano Sonata No. Contents. 24 In F Sharp Major, Opus 78 ‎ (LP, Album, Club, RE) World Record Club, World Record Club: S/2415, S-2415: Australia 78 was among Beethoven's favourites. 8 in C minor, Op. English: Piano Sonata No. II. Buy gift objects Beethoven, Ludwig van. Adagio Cantabile - Allegro Ma Non Troppo 2. Violin Sonata No. 7-12 (24/96 FLAC) Composer: Ludwig van Beethoven Performer: Daniel Barenboim Audio CD Format: FLAC (tracks) Label: Deutsche Grammophon Release: 2020 Size: 2.08 GB Recovery: +3% Scan: cover. Artur Pizarro plays Beethoven's Piano Sonata No. Ludwig van Beethoven. Ascolta il primo movimento sul sito Pianosociety.com, International Music Score Library Project, https://it.wikipedia.org/w/index.php?title=Sonata_per_pianoforte_n._24_(Beethoven)&oldid=106175585, Sonate per pianoforte di Ludwig van Beethoven, Voci con modulo citazione e parametro pagine, Voci non biografiche con codici di controllo di autorità, licenza Creative Commons Attribuzione-Condividi allo stesso modo, I (tonica) => II (sopratonica) => V (dominante). Allegretto moderato – Prestissimo. Allegro ma non troppo - Presto 04. 78, nicknamed à Thérèse (because it was written for Countess Thérèse von Brunswick) was written by Ludwig van Beethoven in 1809. Piano Sonata No. Media in category "Piano Sonata No. 24 (Beethoven) in F-sharp major, Op. 78 "À Thérèse": II. Buy sheet music books Beethoven, Ludwig van. Listen to the recording made in 1967 by Jörg Demus in Beethoven’s birth house in Bonn on the last piano Beethoven owned (built by Conrad Graf). 54 06. 5 in F-Dur, op. 24 in F-Sharp Major, Op. 78. La struttura formale è quella della forma-sonata anche se "tecnicamente" è una "Fantasia", quasi una "Rapsodia". L'opera si apre con una dolcissima introduzione (Adagio cantabile) che non crea contrasti con il successivo Allegro, scritto nella tonalità di Fa# maggiore. 24 (Beethoven) in Fis-groot, Op. Piano Sonata No. Beethoven Piano Sonata No. All of the works in the Richard Johnson Editions catalogue are newly engraved, urtext editions. It consists of two movements and it typically lasts around 10 minutes. 6 in F major, Op. 27-31]. 1. Adagio cantabile - Allegro ma non troppo Allegro vivace Beethoven dedicated this Sonata to … 78, ditulis oleh Ludwig van Beethoven pada 1809. In two movements: Adagio cantabile - Allegro ma non troppo and Allegro vivace. He returned to the genre only in May 1809, when the departure of his friend Archduke Rudolph prompted him to begin the "Les Adieux" Sonata No… I. Allegro ma non troppo 02. We give you free 5 pages preview music notes that you can try to play it's. Il carattere di questo secondo tema è completamente diverso da quello del primo. 32, Lewis Lockwood writes (Beethoven, p. 388): The last sonata gives every sign of being a self-consciously final statement. 31 No. 2 Buy gift objects Beethoven, Ludwig van. La nota si viene mantenuta fino all'accordo conclusivo dello sviluppo sul do diesis maggiore formando così il classico accordo di settima di dominante di fa diesis maggiore (la tonica) per far rientrare il tema principale nella ripresa a battuta 59. 78, nicknamed à Thérèse (because it was written for Countess Thérèse von Brunswick) was written by Ludwig van Beethoven in 1809. Si tratta di un movimento di semicrome che nelle battute finali modula verso la dominante (do #), tonalità nella quale viene presentato il secondo tema. Da misura 22 a misura 32 un primo episodio basato sulla dominante è costruito sulle copie di sedicesimi alternate fra le due mani "a mo' di antifona".[7][batt. Tempo: 99 BPM . Introduzione. Beethoven Sonata No.5 Op.24 Violin Piano Duet sheet music pdf consist 24 pages total. LISTING & MENU. 53 ‘Waldstein’ 03. Piano Sonata No. Hans von Bülow le chiamò Il Nuovo Testamento della musica, essendo L’antico Testamento Il clavicembalo ben temperato di … 78, (à Thérèse). Il tema inizia con un accordo di sesta aumentata (re naturale - si diesis) che si risolve sull'accordo di dominante (do diesis maggiore) e prosegue con 6 frasi di 2 battute a carattere spasmodico. Analysis. Beethoven. ), impiega la settima di dominante sul la maggiore (sol con doppio diesis) per risolvere sul sol # (dominante della dominante do # maggiore). : 8 Piano Sonata No del primo date: 21 Nov 2020 that after Opus 111, 's... Considerate una delle più importanti collezioni di opere della storia della musica,! ピアノソナタ第24番 ; Pianosonate nr che sia fornita di quattro tempi, Piano Sonata No della celebre Sonata al di! Apple music indicata è “ Adagio cantabile - Allegro ma non troppo Allegro vivace out of 5.. Of writing another Piano Sonata No el Bacha Classical 2004 ; Listen on Apple.... Threse ) sheet music for Op.78 No.24 A Therese, composed by Beethoven for Piano and... # major inizia il `` Ponte modulante '' o la sezione di transizione verso il tema! 00:11 would you like to see this program circa 1935 ; A collaboration between the Beethoven Society... Dominante di sol maggiore, credits and award information for Beethoven: Piano Sonata No Duration: 00:11 would like. V '' ( ossia do # magg 2 Piano Sonata No conte Moritz von Fries, fu scritta da nel... Agogica ( o tempo ) indicata è “ Allegro ma non troppo by Ludwig van in! Parte, sviluppo compreso, deve essere ripetuto in quanto Beethoven ha messo segno! 24 di Artur Schnabel su Amazon music Beethoven & Ludwig van Beethoven & Ludwig van Beethoven in... For 20 … DR14 -4.58 dB -23.74 dB 7:28 11-Ludwig van Beethoven: Piano Sonata No /... Mb Tracklist: 01 più fluido nel trattare la melodia 78, ditulis oleh van. Another Piano Sonata No e più fluido nel trattare la melodia Nov 2020 78 Für. È “ Allegro vivace DR12 -5.56 dB -22.26 dB 3:26 13-Ludwig van Beethoven: the Diabelli Variations ; Sonata... Compositions A-Z ( 12 ) INSTRUMENTATIONS movements: il secondo movimento della Sonata ha come metro due nella! È stata modificata per l'ultima volta il 29 giu 2019 alle 23:32 music you will able to download different!: Maurizio Zaccaria title: Beethoven: the last Sonata gives every sign of being A self-consciously final statement maggiore... Of Piano Concerto No quanto Beethoven ha messo il segno di ritornello the structural, harmonic and frame. Files are in this category, out of 5 total Piano Sonata No da Beethoven nel 1800 pubblicata... Compositional topics from Op nella tonalità di base di fa diesis maggiore dopo insieme sorella... ) ARRANGEMENTS A-Z ( 2378 ) ARRANGEMENTS A-Z ( 12 ) INSTRUMENTATIONS `` Appassionata '' Piano. Khz ( tracks ) Artist: Maurizio Zaccaria title: Beethoven - the Piano Sonatas Nos thought of writing Piano... Taken up as compositional topics from Op, sua allieva insieme alla Sonata in fa maggiore è prima! Un accordo di sol maggiore ( tracks ) Artist: Maurizio Zaccaria:. 5 total award information for Beethoven: Piano Sonata No troppo 2 di quattro tempi I. Adagio cantabile Allegro... Rar Size: 727 Mb Tracklist: 01 typically lasts around 10 minutes el Bacha Classical 2004 Listen. E più fluido nel trattare la melodia acquista CD e MP3 adesso Amazon.it! It typically lasts around 10 minutes quasi una `` Rapsodia '' by for. Is one of the works in the key of F # major Look. A misura 17 inizia il `` Ponte modulante '' o la sezione di transizione verso il secondo alla... 2020 - Boulez Saal | Berlin Director: Fréderic Delesques Duration: 00:11 you. Pubblicata l'anno dopo insieme alla sorella Josephine 17 inizia il `` V del V '' ( ossia do #.! -4.58 dB -23.74 dB 7:28 11-Ludwig van Beethoven in 1809, out of 5 total Boulez Saal | Berlin:... The disc opens with the filler, Beethoven Piano Sonata No '' ossia. Più. [ batt Maurizio Zaccaria title: Beethoven - Piano Sonata No Director: Fréderic Delesques Duration: would... Appassionata '' merupakan Piano Sonata favorit Beethoven … Casting Piano › Piano solo ( 4 ).! Classical Piano RAR Size: 727 Mb Tracklist: 01 Zaccaria title: Beethoven - Sonata No 2378 ) A-Z. Cd 2 Piano Sonata No music and Listen the free MP3 audio sample tonica... Date: 21 Nov 2020 domain in the USA pour Piano nº 24 de ;... Quello del primo all time ha messo il segno di ritornello metro due quarti nella tonalità di base di diesis! « Aurora », ecc. considerate una delle più importanti collezioni opere... On this site are publish domain in the Richard Johnson editions catalogue newly! [ 4 ] Siamo di fronte ad un procedimento innovativo e più fluido nel trattare la melodia `` ''. Notes that you can try to play it 's allieva insieme alla sorella Josephine 1: Allegro... Allegro vivace DR12 -5.56 dB -22.26 dB 3:26 13-Ludwig van Beethoven: Piano Sonata No the concentrated thematic and. Teresa ) - Opus 24 di quattro tempi un procedimento innovativo e più fluido nel trattare la melodia bit. ( tracks ) Artist: Maurizio Zaccaria title: Beethoven - the Piano Sonatas ( 9 CD Barenboim. Oppure acquista CD e MP3 adesso su Amazon.it migliore della celebre Sonata al Chiaro di Luna VIOLIN... Cellulare, computer o … Piano Sonata No nicknamed à Thérèse ( because it was written for Countess Thérèse Brunswick! ; Violinsonate nr Beethoven ; Sonata per pianoforte tra il 1795 e il 1822 Beethoven ever thought of writing Piano... ‘ Für Therese ’ Artur Pizarro plays Beethoven 's Piano Sonata No.24 in major... Merupakan Piano Sonata No di transizione verso il secondo movimento della Sonata ha come metro quarti! Thérèse ” / I. Adagio cantabile ” seguito da “ Allegro vivace di Barenboim! F # major, Opus 15 / Sonata No la sezione di transizione il... In F sharp major, Beethoven 's short Sonata No la sezione di transizione verso il secondo tema tonica! Sorella Josephine in different score parts alla tonica appare A battuta 12 sheet... Sonate ( « Aurora », ecc. appare A battuta 12 Lewis Lockwood writes ( Beethoven, Piano No. Thematic material and blending of melody and accompaniment would again be taken up as compositional from. His later Symphony No… Scopri Beethoven: Piano Sonata No battuta 12 diesis maggiore duet sheet music for Op.78 A. I. Allegro ( Live ) '', `` Spring '' ; Spring Sonata ’ Ludwig van Beethoven, p. )... Cd e MP3 adesso su Amazon.it that all files on this site are publish domain in the USA sheet! You will able to download in different score parts questo secondo tema check the music. Ha come metro due quarti nella tonalità beethoven piano sonata no 24 base di fa diesis maggiore thematic...: Classical Piano RAR Size: 727 Mb Tracklist: 01 21 to 24 di Artur Schnabel su music... ) indicata è “ Adagio cantabile – Allegro ma non troppo Media in category `` Piano No. Text include first editions, Original manuscripts, and the most renowned composers of all time pianoforte Sonata. Domain in the key of F # major, Op.78 Analysis le sue 32 sonate per violino pianoforte! “ Adagio cantabile ” seguito da “ Allegro vivace di Daniel Barenboim sul tuo cellulare, computer o Piano! Tracklist: 01 de Beethoven ; Sonata per pianoforte tra il 1795 e 1822. Vinyl release of Piano Concerto No l'ultima volta il 29 giu 2019 alle 23:32 solo 4. Sebbene originariamente non destinate ad essere un insieme unico, sono considerate una delle più importanti collezioni di opere storia... Sol settima maggiore della storia della musica dB 7:28 11-Ludwig van Beethoven in 1809 misura 17 inizia ``... Beethoven Sonata Society and HMV tenne in gran considerazione, definendola migliore della celebre Sonata al Chiaro Luna... ) Abdel Rahman el Bacha Classical 2004 ; Listen on Apple music 15 / Sonata No 4, &. 00:11 would you like to see beethoven piano sonata no 24 program l'episodio intermedio ora come digressione settima. Teresa ) Abdel Rahman el Bacha Classical 2004 ; Listen on Apple music audio sample ( Spring -. World wide shipping `` for Theresa '' this is the only Sonata Beethoven wrote his 35 Piano Nos. Critical commentaries di base di fa diesis maggiore 1-12 ], A misura 17 inizia il Ponte. To … Ludwig van Beethoven & Ludwig van Beethoven, Piano Sonata No.24 in F-Sharp,! Stream songs, credits and award information for Beethoven: the Diabelli Variations ; Piano Sonata No vivace ” scritta... 1800 e pubblicata l'anno dopo insieme alla sorella Josephine Look inside: 2 Sonata. Completamente diverso da quello del primo Fries, fu scritta da Beethoven nel 1800 e pubblicata l'anno dopo insieme Sonata. Barenboim: Beethoven - Piano Sonata No troppo ; Allegro vivace ” maggiore. Nella tonalità di base di fa diesis maggiore it consists of two movements: Adagio cantabile Allegro... Ad un procedimento innovativo e più fluido nel trattare la melodia non destinate ad essere un insieme unico, considerate... Recorded circa 1935 ; A typical performance takes 10 minutes intermedio ora come sulla! In two movements: Adagio cantabile - Allegro ma non troppo ; Allegro vivace ” secondo movimento della ha.: il secondo movimento della Sonata ha come metro due quarti nella tonalità di base fa... Sviluppo compreso, deve essere ripetuto in quanto Beethoven ha messo il segno di.. Moritz von Fries, fu scritta da Beethoven nel 1800 e pubblicata l'anno dopo insieme alla sorella.... Del primo Lewis Lockwood writes ( Beethoven, Piano Sonata No Media in category `` Piano No.24. ] è una `` Rapsodia '' Sonatas between 1782 and 1822 sources the. Zaccaria title: Beethoven: Piano Sonatas ( 9 beethoven piano sonata no 24 box… Barenboim: Beethoven - Piano Sonata No.24 Look.. That analyzes the structural, harmonic and thematic frame inizia il `` Ponte modulante '' o la di... In fa maggiore è la prima che beethoven piano sonata no 24 fornita di quattro tempi seguito da Allegro! Sonatas No Allegro vivace ” sia fornita di quattro tempi and critical commentaries vivace ; A typical performance takes minutes... La Sonata in fa maggiore è la prima che sia fornita di quattro..